osu file format v14

[General]
AudioFilename: 8bp059-01-bit_shifter-chase_init_.mp3
AudioLeadIn: 2000
PreviewTime: 44337
Countdown: 0
SampleSet: Soft
StackLeniency: 0.7
Mode: 0
LetterboxInBreaks: 0
WidescreenStoryboard: 0

[Editor]
DistanceSpacing: 1
BeatDivisor: 4
GridSize: 4
TimelineZoom: 1

[Metadata]
Title:Chase Init_
TitleUnicode:Chase Init_
Artist:Bit Shifter
ArtistUnicode:Bit Shifter
Creator:vipto
Version:Koka's Normal
Source:
Tags:information chase chiptune 8 bit Kokatsu
BeatmapID:246259
BeatmapSetID:90826

[Difficulty]
HPDrainRate:4
CircleSize:3
OverallDifficulty:5
ApproachRate:5
SliderMultiplier:1.6
SliderTickRate:1

[Events]
//Background and Video events
0,0,"herlo.jpg",0,0
//Break Periods
//Storyboard Layer 0 (Background)
//Storyboard Layer 1 (Fail)
//Storyboard Layer 2 (Pass)
//Storyboard Layer 3 (Foreground)
//Storyboard Sound Samples
//Background Colour Transformations
3,100,163,162,255

[TimingPoints]
520,995.850622406639,4,2,0,25,1,0
48320,1000,4,2,0,25,1,0
50320,1090.90909090909,4,2,0,25,1,0
50865,1200,4,2,0,25,1,0
51465,1263.15789473684,4,2,0,25,1,0
52096,2181.81818181818,4,2,0,25,1,0
53186,995.850622406639,4,2,0,25,1,0
56920,-100,4,2,0,15,0,0
61275,-100,4,2,0,5,0,0

[Colours]
Combo1 : 171,171,214
Combo2 : 211,168,255

[HitObjects]
71,183,520,2,0,B|105:148|112:115|112:115|136:89|185:72,1,160,2|0,0:0|0:0,0:0:0:0:
258,60,2013,1,0,0:0:0:0:
337,68,2511,2,0,B|331:115|291:135|291:135|287:174|324:215,1,160,2|0,0:0|0:0,0:0:0:0:
360,270,4005,1,0,0:0:0:0:
282,291,4503,6,0,L|180:313,1,80,2|2,0:0|0:0,0:0:0:0:
206,227,5499,2,0,L|105:222,1,80,2|2,0:0|0:0,0:0:0:0:
146,145,6495,6,0,L|64:113,1,80,2|2,0:0|0:0,0:0:0:0:
114,48,7490,2,0,L|203:82,1,80,2|2,0:0|0:0,0:0:0:0:
268,66,8486,6,0,B|297:82|297:82|311:107|311:107|351:144|417:148,1,160,2|0,0:0|0:0,0:0:0:0:
456,201,9980,1,0,0:0:0:0:
392,250,10478,2,0,B|343:273|291:244|291:244|223:257,1,160,2|0,0:0|0:0,0:0:0:0:
159,272,11972,1,0,0:0:0:0:
129,197,12470,5,2,0:0:0:0:
153,120,12968,1,2,0:0:0:0:
227,148,13466,1,2,0:0:0:0:
293,103,13963,1,2,0:0:0:0:
338,169,14461,5,2,0:0:0:0:
417,172,14959,1,2,0:0:0:0:
397,249,15457,1,2,0:0:0:0:
468,284,15955,1,2,0:0:0:0:
409,338,16453,6,0,B|319:314|287:243|287:243|251:313|157:338,1,320,2|2,0:0|0:0,0:0:0:0:
107,278,18943,1,0,0:0:0:0:
85,200,19441,2,0,B|86:166|98:136|118:112,1,80,,,0:0:0:0:
171,74,20437,6,0,B|209:58|209:58|261:53,1,80,2|2,0:0|0:0,0:0:0:0:
327,57,21432,1,2,0:0:0:0:
404,75,21930,1,2,0:0:0:0:
445,143,22428,6,0,B|416:172|416:172|393:218,1,80,2|2,0:0|0:0,0:0:0:0:
382,285,23424,1,2,0:0:0:0:
377,364,23922,1,2,0:0:0:0:
297,352,24420,6,0,B|249:331|191:338|191:338|167:324|120:322,1,160,2|0,0:0|0:0,0:0:0:0:
70,286,25914,1,0,0:0:0:0:
26,218,26412,2,0,B|84:189|127:230|127:230|181:193,1,160,2|0,0:0|0:0,0:0:0:0:
230,150,27905,1,0,0:0:0:0:
303,118,28403,5,2,0:0:0:0:
372,77,28901,1,2,0:0:0:0:
439,120,29399,1,2,0:0:0:0:
424,198,29897,1,2,0:0:0:0:
351,231,30395,5,2,0:0:0:0:
339,310,30893,1,2,0:0:0:0:
268,348,31391,1,2,0:0:0:0:
197,309,31889,1,2,0:0:0:0:
201,229,32387,6,0,B|167:204|127:191|127:191|105:158|110:95,1,160,2|0,0:0|0:0,0:0:0:0:
105,37,33880,1,0,0:0:0:0:
184,43,34378,2,0,B|227:46|227:46|247:74|247:74|282:84|357:80,1,160,2|0,0:0|0:0,0:0:0:0:
409,81,35872,1,0,0:0:0:0:
422,159,36370,6,0,B|433:197|433:197|453:237,2,80,2|2|2,0:0|0:0|0:0,0:0:0:0:
341,160,37864,1,2,0:0:0:0:
261,170,38362,6,0,B|253:128|227:94,2,80,2|2|2,0:0|0:0|0:0,0:0:0:0:
278,248,39856,1,2,0:0:0:0:
205,280,40354,6,0,B|170:255|129:249|129:249|52:239|52:239|42:144|123:90,1,320,2|2,0:0|0:0,0:0:0:0:
187,76,42843,1,0,0:0:0:0:
267,72,43341,2,0,B|313:92|362:95,1,80,,,0:0:0:0:
414,130,44337,6,0,B|427:170|427:170|431:216,1,80,2|2,0:0|0:0,0:0:0:0:
411,286,45333,1,2,0:0:0:0:
348,336,45831,1,2,0:0:0:0:
286,284,46329,6,0,B|274:240|274:240|253:202,1,80,2|2,0:0|0:0,0:0:0:0:
191,163,47324,1,2,0:0:0:0:
115,136,47822,1,2,0:0:0:0:
114,215,48320,5,0,1:0:0:0:
189,242,48820,1,0,1:0:0:0:
265,219,49320,1,0,1:0:0:0:
341,242,49820,2,0,L|389:224,1,40,0|0,1:0|1:0,0:0:0:0:
412,212,50320,6,0,B|442:197|459:168|463:138,1,80,0|0,1:0|1:0,0:0:0:0:
386,132,51465,6,0,B|347:128|347:128|302:108,1,80,0|0,1:0|1:0,0:0:0:0:
160,67,53186,6,0,L|84:113,1,80,2|2,0:0|0:0,0:0:0:0:
144,168,54181,2,0,L|97:242,1,80,2|2,0:0|0:0,0:0:0:0:
175,266,55177,6,0,L|144:357,1,80,2|2,0:0|0:0,0:0:0:0:
224,369,56173,2,0,L|249:293,1,80,2|2,0:0|0:0,0:0:0:0:
256,192,56920,12,0,61277,0:0:0:0:
